2012

Safe House 2012 Download Torrent Full

Oct 16, 2012 - Safe House 2012 DVDRiP XviD AbSurdiTy torrent – Action torrents, Download torrent: Download Safe House 2012 DVDRiP XviD AbSurdiTy. Download Safe House 2012 BRRip XviD MP3-RARBG torrent or any other torrent from category. Direct download via HTTP available as well.

Safe House 2012 Download Torrent

Tobin Frost

leechers: 12
Added on January 4, 2016 by z0n321in Movies
Torrent verified.

  • Movie:Safe House
  • IMDB:1599348
  • Detected quality: HDRiP
  • IMDB rating: 6.8 (158,640 votes)
  • RottenTomatoes: 53% 64%
  • Genres:Action, Crime, Mystery
  • Cast:Denzel Washington, Robert Patrick, Sam Shepard, RubéN Blades, Sebastian Roché, Ryan Reynolds, Christopher Aber, Jody Abrahams, Lynita Crofford, Liam Cunningham and others
  • Release date: February 7, 2012
Available in versions:1080p720pBlu-RayBDRipHDRiPDVDDVDRipTeleSyncCamiPhone

Safe House 2012 BRRip XviD MP3-RARBG (Size: 1.45 GB)
rarbg.com.avi1.14 MB
rarbg.com.txt34 bytes
Safe.House.2012.BRRip.XviD.MP3-RARBG.avi1.45 GB
Safe.House.2012.BRRip.XviD.MP3-RARBG.nfo3.07 KB
und.srt80.04 KB

Description

https://rarbg.to
Safe.House.2012.BRRip.XviD.MP3-RARBG
Screens :
Mediainfo :
Video
ID : 0
Format : MPEG-4 Visual
Format profile : [email protected]
Format settings, BVOP : No
Format settings, QPel : No
Format settings, GMC : No warppoints
Format settings, Matrix : Default (H.263)
Codec ID : XVID
Codec ID/Hint : XviD
Duration : 1h 54mn
Bit rate : 1 598 Kbps
Width : 720 pixels
Height : 300 pixels
Display aspect ratio : 2.40:1
Frame rate : 23.976 fps
Color space : YUV
Chroma subsampling : 4:2:0
Bit depth : 8 bits
Scan type : Progressive
Compression mode : Lossy
Bits/(Pixel*Frame) : 0.309
Stream size : 1.28 GiB (89%)
Title : RARBG.COM - Safe.House.2012.BRRip.XviD.MP3-RARBG
Writing library : Lavc56.60.100
Audio
ID : 1
Format : MPEG Audio
Format version : Version 1
Format profile : Layer 3
Mode : Joint stereo
Codec ID : 55
Codec ID/Hint : MP3
Duration : 1h 54mn
Bit rate mode : Constant
Bit rate : 192 Kbps
Channel(s) : 2 channels
Sampling rate : 48.0 KHz
Compression mode : Lossy
Stream size : 158 MiB (11%)
Alignment : Aligned on interleaves
Interleave, duration : 24 ms (0.58 video frame)
Interleave, preload duration : 24 ms
Title : RARBG.COM - Safe.House.2012.BRRip.XviD.MP3-RARBG

Related Torrents

torrent namesizeseedleech
The Red House 2013 BRRip XviD MP3-RARBGPosted by TryMeS in Movies
884.1 MB5331
Housebound 2014 720p BRRip XviD AC3-RARBGPosted by TimeBandits in Movies > Highres Movies
2.13 GB7026
The Houses October Built 2014 BRRip XviD AC3-RARBGPosted by z0n321 in Movies
1.31 GB00
Tiger House 2015 720p BRRip XviD AC3-RARBGPosted by z0n321 in Movies > Highres Movies
1.96 GB22
Tiger House 2015 BRRip x264-RARBGPosted by z0n321 in Movies
732.1 MB67

Sharing Widget


Download torrent
seeders:10
Safe House 2012 BRRip XviD MP3-RARBG