1. Alvin And The Chipmunks Chipwrecked Movie Download Torrent Free
  2. Chipmunks Chip Wrecked Soundtrack
  3. Watch Alvin And The Chipmunks

On the other hand, Alvin and the Chipmunks: Chipwrecked feels rather lacklustre this time around. The pop songs was a bonus in both of the previous two movies, here they sound really tired with generic melodies and forgettable lyrics.

Alvin And The Chipmunks Chipwrecked Movie Download Torrent Free

Alvin and the chipmunks free

Chipmunks Chip Wrecked Soundtrack

Alvin and the chipmunks chipwrecked movie download torrent full

Watch Alvin And The Chipmunks

leechers: 0
Added on September 20, 2015 by k0cain Movies > Highres Movies
Torrent verified.

  • Movie:Alvin and the Chipmunks: Chipwrecked
  • IMDB:1615918
  • Detected quality: 1080p
  • IMDB rating: 4.4 (20,014 votes)
  • RottenTomatoes: 12% 52%
  • Genres:Animation, Family, Comedy, Fantasy, Music
  • Cast:Alyssa Milano, Christina Applegate, Jason Lee, David Cross, Anna Faris, Chad Krowchuk, Justin Long, Jesse McCartney, Michael P. Northey, Amy Poehler and others
  • Release date: December 16, 2011
Available in versions:1080p720pHDRiPDVDDVDRipTeleSyncCam

Alvin and the Chipmunks Chip-Wrecked 2011 1080p BluRay x264-Counterfeit[rarbg] (Size: 6.64 GB)
rarbg.com.txt34 bytes
ctf-alvin.wrecked.1080-proof.jpg1.92 MB
ctf-alvin.wrecked.1080-sample.mkv85.58 MB
ctf-alvin.wrecked.1080.idx70.92 KB
ctf-alvin.wrecked.1080.mkv6.54 GB
ctf-alvin.wrecked.1080.nfo6.07 KB
ctf-alvin.wrecked.1080.sub9.67 MB

Description


Screenshots:
Name/Year..: Alvin and the Chipmunks: ChipWrecked (2011)
Source.....: R1 1080p BluRay
Theatre....: 12/16/2011 (USA)
Release....: 03/09/2012
Retail.....: 03/27/2012
Length.....: 86 min
Video......: 1920*1040
Audio......: English DTS
Subtitles..: English
Rating.....: 3.5/10 (4,889 votes)
Genre......: Animation/Comedy
Screens....: $23,244,744 (USA) (18 December 2011) (3,723 Screens)
iMDB.......: http://www.imdb.com/title/tt1615918
Playing around while aboard a cruise ship, the Chipmunks and Chipettes
accidentally go overboard and end up marooned in a tropical paradise.
They discover their new turf is not as deserted as it seems.
Live free or die hard trying...
'Alea iacta est'
It's Better to burn out, than to fade away!
. .::C O U N T E R F E I T::. .
cOuGh
cRo/2k9
924e461726d984a678301222f2c1a81b
Media info:
Video
ID : 1
Format : AVC
Format/Info : Advanced Video Codec
Format profile : [email protected]
Format settings, CABAC : Yes
Format settings, ReFrames : 4 frames
Codec ID : V_MPEG4/ISO/AVC
Duration : 1h 27mn
Bit rate : 9 250 Kbps
Width : 1 920 pixels
Height : 1 040 pixels
Display aspect ratio : 1.85:1
Frame rate mode : Constant
Frame rate : 23.976 fps
Color space : YUV
Chroma subsampling : 4:2:0
Bit depth : 8 bits
Scan type : Progressive
Bits/(Pixel*Frame) : 0.193
Stream size : 5.49 GiB (84%)
Writing library : x264 core 122 r2183 c522ad1
Encoding settings : cabac=1 / ref=4 / deblock=1:0:0 / analyse=0x3:0x133 / me=umh / subme=8 / psy=1 / psy_rd=1.00:0.00 / mixed_ref=1 / me_range=16 / chroma_me=1 / trellis=1 / 8x8dct=1 / cqm=0 / deadzone=21,11 / fast_pskip=1 / chroma_qp_offset=-2 / threads=24 / sliced_threads=0 / nr=0 / decimate=1 / interlaced=0 / bluray_compat=0 / constrained_intra=0 / bframes=3 / b_pyramid=2 / b_adapt=1 / b_bias=0 / direct=1 / weightb=1 / open_gop=0 / weightp=2 / keyint=250 / keyint_min=23 / scenecut=40 / intra_refresh=0 / rc=2pass / mbtree=0 / bitrate=9250 / ratetol=1.0 / qcomp=0.60 / qpmin=0 / qpmax=69 / qpstep=4 / cplxblur=20.0 / qblur=0.5 / ip_ratio=1.40 / pb_ratio=1.30 / aq=1:1.00
Language : English
Default : Yes
Forced : No
Audio
ID : 2
Format : DTS
Format/Info : Digital Theater Systems
Mode : 16
Format settings, Endianness : Big
Codec ID : A_DTS
Duration : 1h 27mn
Bit rate mode : Constant
Bit rate : 1 509 Kbps
Channel(s) : 6 channels
Channel positions : Front: L C R, Side: L R, LFE
Sampling rate : 48.0 KHz
Bit depth : 24 bits
Compression mode : Lossy
Stream size : 941 MiB (14%)
Title : english
Language : English
Default : Yes
Forced : No

Related Torrents

torrent namesizeseedleech
Alvin and the Chipmunks Chip-Wrecked 2011 480p BluRay x264-mSDPosted by UsaBit in Movies
804.39 MB10
Alvin and the Chipmunks Chip-Wrecked 2011 720p BluRay x264-CounterfeitPosted by IMKNONOBODY in Movies > Highres Movies
4.36 GB50
Alvin.and.the.Chipmunks.Chip-Wrecked.2011.1080p.BluRay.x264-CounterfeitPosted by ChrisDen in Movies > Highres Movies
6.55 GB15
Alvin.and.the.Chipmunks.Chip-Wrecked.2011.FRENCH.720p.BluRay.x264-NERDHDPosted by skelen in Movies > Highres Movies
3.26 GB31
Alvin and the Chipmunks Chip-Wrecked 2011 720p BluRay H264 AAC-RARBGPosted by z0n321 in Movies > Highres Movies
1.05 GB10

Sharing Widget


Download torrent
seeders:2
Alvin and the Chipmunks Chip-Wrecked 2011 1080p BluRay x264-Counterfeit[rarbg]

Screenshots